#TITLE:I can't go on;
#SUBTITLE:;
#ARTIST:F.I.R乐队;
#TITLETRANSLIT:;
#SUBTITLETRANSLIT:;
#ARTISTTRANSLIT:;
#CREDIT:;
#BANNER:I can't go on_logo.jpg;
#BACKGROUND:I can't go on_bg.jpg;
#LYRICSPATH:;
#CDTITLE:Lan.png;
#MUSIC:I can't go on.mp3;
#OFFSET:-0.080;
#SAMPLESTART:100.000;
#SAMPLELENGTH:12.000;
#SELECTABLE:YES;
#BPMS:0.000=126.000;
#STOPS:;
#BGCHANGES:;
// cache tags:
#FIRSTBEAT:36.000;
#LASTBEAT:279.750;
#SONGFILENAME:Songs/lan sky/I can't go on/I can't go on.sm;
#HASMUSIC:1;
#HASBANNER:1;
#MUSICLENGTH:138.351;
// end cache tags

//---------------dance-single - sky----------------
#NOTES:
     dance-single:
     sky:
     Hard:
     9:
     0.558,0.935,0.275,0.029,0.286,489.000,38.000,4.000,0.000,9.000:

0000
0000
0000
0000
,
0000
0000
0000
0000
,
0000
0000
0000
0000
,
0000
0000
0000
0000
,
0000
0000
0000
0000
,
0000
0000
0000
0000
,
0000
0000
0000
0000
,
0000
0000
0000
0000
,
0000
0000
0000
0000
,
1000
0010
0101
0010
1000
0010
0101
0010
,
1000
0100
0011
0100
1000
0010
0101
0010
,
1000
0100
0011
0100
1000
1000
0011
0010
,
1000
0010
0101
0010
0001
0001
1000
0010
,
1100
0010
0101
0010
0100
0100
1010
0001
,
0100
1000
0011
0010
0100
1000
1001
0100
,
0001
1000
0110
0001
1000
1000
0011
1000
,
0001
0000
0100
0000
0010
0000
1000
0000
0001
0000
0001
0000
0100
0010
1000
0000
,
0001
0100
1001
0010
0100
1000
0110
0001
,
0100
1000
0011
0010
1000
1000
0110
0001
,
0010
1000
0010
0001
0100
1000
0010
1000
,
0010
1000
0010
1000
0001
1000
0100
1000
,
0010
0000
1000
1000
1000
0000
0001
0000
0100
0100
0000
0000
1000
1000
1000
0000
,
0111
0000
0001
1000
0010
1000
0001
0010
,
1000
0000
0000
1000
0100
0000
0001
0000
0010
0000
1000
0000
0100
0001
0000
0000
,
0010
1000
0010
0100
0001
1000
0001
1000
,
0100
0000
1000
0000
0001
0000
1000
0000
0010
0000
1000
0000
0100
0001
0001
0000
,
1110
0000
0001
0100
1000
0010
1000
0001
,
0001
1000
0010
1000
0001
0100
0010
1000
,
0100
1000
0010
1000
0010
0100
1000
0001
,
0010
0000
0000
1000
0100
0000
0010
0000
1000
0000
0010
0000
0001
0000
1000
0000
,
0111
0000
0010
1000
0010
1000
0010
1000
,
0001
0001
0100
0010
1000
0010
0001
1000
,
0010
0001
0100
1000
0010
1000
0010
0001
,
0100
0000
1000
0000
0001
0000
1000
0000
0100
0000
0001
0000
0010
0100
0010
0010
,
1101
0010
0001
0100
1000
0010
0001
0100
,
0010
1000
0010
0100
0001
0100
0001
1000
,
0100
0010
0001
1000
0010
0100
0001
0010
,
0100
0000
0000
1000
0100
0000
0010
0000
0001
0000
0100
0000
0001
0000
0100
0000
,
1000
0000
0101
0000
0010
0000
0101
0000
0010
0000
1000
0000
0010
0000
0100
0100
,
0100
0000
0010
0000
0001
0000
0100
0000
1000
0000
0010
0010
1000
0000
0000
0000
,
0001
0000
0000
0000
0000
0000
0010
0000
0000
0000
0100
0000
0010
0000
0000
1000
,
0100
0000
0001
0000
0010
0100
1000
0000
0000
0000
0010
0000
0001
0000
0100
0000
,
0000
0000
1000
0000
0100
0000
0010
0000
0001
0010
0100
0000
1000
0100
0010
0000
,
0001
0000
0010
0000
0100
0010
0001
0000
1000
0100
0010
0000
0001
0010
0100
1000
,
0001
0000
0010
0000
1000
0100
0010
0001
0010
0100
1000
0100
0010
0001
0010
0100
,
1000
0000
0000
0000
0000
0000
0000
0000
0100
0010
0001
0000
0100
0010
0001
0000
1000
0100
0010
0000
0001
0010
0001
0010
0001
0010
0001
1000
0100
1000
0100
1000
,
0100
1000
0010
0100
0010
0100
0010
0100
0010
1000
0001
1000
0001
1000
0001
1000
0100
0001
0100
0001
0100
0001
0100
1000
0010
1000
0010
1000
0010
1000
0100
0010
,
0000
0000
0100
0000
0001
0000
0200
0000
0000
0000
0000
0000
0000
0000
0000
0300
,
1000
0001
0100
0001
,
1000
0001
0010
0100
,
1000
0101
0010
0001
,
1000
0000
0010
0000
0001
0001
1000
0000
,
0010
1100
0001
0100
,
0001
1000
0010
1000
,
0001
0000
1100
0000
0001
0010
1100
0000
,
1000
0000
0100
0000
0010
0000
0100
0000
0010
0010
0000
0000
1000
1000
0000
0000
,
1011
0100
1001
0010
0100
1000
0100
1001
,
0000
1000
0010
0001
1100
1100
0010
0001
,
0010
1000
0010
0001
0100
1000
0010
1000
,
0010
1000
0010
1000
0001
1000
0100
1000
,
0002
0000
0000
0000
0000
0000
0000
0003
0000
0000
0100
0100
0000
1000
0000
0000
,
0111
0000
0000
0000
1000
0000
0000
0010
0010
0000
0001
0000
1000
0000
0010
0000
,
0001
0000
0000
0000
1000
0000
0000
0010
0010
0000
0001
0000
1000
0000
0001
0000
,
0100
0000
0000
0000
0010
0000
0000
1000
1000
0000
0010
0000
0001
0000
1000
0000
,
0100
0000
0000
0000
0001
0000
0000
0100
0100
0000
0010
0000
0001
0010
0100
0000
,
1011
0000
0000
0000
0010
0000
0000
0001
0001
0000
0100
0000
1000
0000
0100
0000
,
0010
0000
0000
0000
1000
0000
0000
0010
0010
0000
0001
0000
0100
0000
0010
0000
,
1000
0000
0000
0000
0010
0000
0000
1000
1000
0000
0010
0000
0001
0000
1000
0000
,
0111
0000
1000
0000
0100
0000
1011
0000
0100
0000
0001
0000
1000
1000
0000
0000
,
0220
0000
0000
0000
0000
0000
0000
0000
0000
0000
0000
0000
0000
0000
0000
0330
;
